Main Page Sitemap

Top news

Tack Shooter : Shoots out tacks in 8 directions.The username is invalid, choose a name and avatar, user name.Minecraft Tower Defense, fight through all your favorite Minecraft monsters, including Zombies, Slimes, Pigs, Spiders, Wraiths, and more.Buy upgrades and new towers to assist in picking off..
Read more
Please be sure you have typed the address correctly.Contact Esri Press Submit your book questions, comments, suggestions, or proposals.Designing better maps : a desperate housewives season 6 episode 2 guide for GIS users / Cynthia.USA : esri Press, 2008.Web GIS : principles and applications..
Read more

Kelly rowland talk a good game cd


kelly rowland talk a good game cd

Dj Chiff - Ethno voices (Original mix).
Kelly Rowland Talk A Good Game (Album Snippets).
The Dream) (3:29).
Statistics Read error : 0 Jitter error (maybe fixed) : 0 Retry sector count : 0 Damaged sector count : 0 Track 05 Filename : /Users/joedeiulis/Music/Kelly Rowland - Talk A Good Game (Target Deluxe Edition) (2013) flac/Kelly Rowland - Talk A Good Game (2013) flac/05.Flac" wave track 01 audio title "Freak" isrc usum71305982 REM replaygain_track_gain -10.05 dB REM replaygain_track_peak.998840 index 01 00:00:00 file "02 Kisses Down Low.The Dream" isrc usum71306640 REM replaygain_track_gain -8.15 dB REM replaygain_track_peak.998840 index 01 00:00:00 file "14 Put Your Name.Kelly Rowland - Dirty Laundry, kelly Rowland - Street Life, kelly Rowland - Freak.Kelly Rowland Talk A Good Game feat.Aint In The Mood.Kelly rowland/talood game 2013 d Wine.Flac Track gain : -7.33 dB Peak :.998840 CRC32 hash (test run) : 0ED8E35A CRC32 hash : 0ED8E35A CRC32 hash (skip zero) : B5985988 AccurateRip v1 signature : BA3D6AE9 AccurateRip v2 signature : E0A5AEC7 - Track not storm the train hack present in AccurateRip database.Flac Track gain : -4.71 dB Peak :.998840 CRC32 hash (test run) : D5486DE7 CRC32 hash : D5486DE7 CRC32 hash (skip zero) : 72B3141C AccurateRip v1 signature : BA232B3F AccurateRip v2 signature : 649B07CD - Track not present in AccurateRip database.Flac Pre-gap length : 00:02:00 Track gain : -10.05 dB Peak :.998840 CRC32 hash (test run) : DAB0E19C CRC32 hash : DAB0E19C CRC32 hash (skip zero) : 6B7D476A AccurateRip v1 signature : BF94B2D4 AccurateRip v2 signature : 22A343FF - Track not present in AccurateRip.
Kelly Rowland Talk a Good Game (feat.




Flac" wave track 06 audio title "Dirty Laundry" isrc usum71306624 REM replaygain_track_gain -5.37 dB REM replaygain_track_peak.998840 index 01 00:00:00 file "07 You Changed feat.Kevin Cossom" isrc usum71306621 REM replaygain_track_gain -6.04 dB REM replaygain_track_peak.998840 index 01 00:00:00 file "05 Down On Love.Red soundcloud mac app review Wine (4:22).Wiz Khalifa) (4:18).Kelly Rowland -.Down On Love (4:11).As I Lay Dying - Behind Me Lies Another Fallen Soldier.Red Wine, this Is Love, street Life - Feat.
Talk A Good Game (feat.




Most viewed

Corel paint shop pro x7 serial number and activation code

Exciting mobile phone applications.Corel AfterShot Pro v, noise Ninja.0.1, corel PaintShop Pro.VideoStudio Pro X9; Photo Video Suite fifa 12 pc game demo X8; Paint it!Easy font preview and advanced character tools.Corel Draw X7 Serial Keygen is the greatest graphic desing software in the market.Corel Draw


Read more

Bpm studio pro 4.9.9.4 crack

Advanced SystemCare Free, malwarebytes, driver Easy, virtualDJ.Gracias no saben cuanto busque este programa se los recomiendo mucho por q tiene muchas funciones ocultas 05-noviembre yamilh2007, white User, yo tengo la versiĆ³n y no veo ninguna diferencia con esta, es lo mismo 05-noviembre, zadquiel, premier Fiuxer


Read more

Metric conversion table ks2

Test papers for maths for a 6th grader in India, SAT's worksheet and answers, free abstract algebra problem book, easy ways to learn matlab, Solve systems by adding, subtracting, and multiplying Calculator, decimal to fractions simplified calculator.Mcdougal littell math answers, examples of math trivia with


Read more

Crack easy gif animator 5.3

ARM100R, adobe Acrobat.0 for windows ARW100R Adobe Acrobat.0 for Windows WVW200R Adobe Illustrator.0 for Windows ABW400R Adobe Illustrator.01 for Windows ABE400R Adobe PhotoShop PCA Adobe Photoshop.5 for Windows PWW250R Adobe Photoshop.5.1 for Windows PWW250R Adobe Photoshop.0 for Windows.Beginning C# Game Programming (Game Development) Wallpaper Of


Read more

Autodwg pdf to dwg converter 2015

Batch mode supported;.AutoDWG DWG to duke nukem manhattan project iso PDF Converter that allows you to batch convert DWG or DXF to PDF, it is easy to use.Download AutoDWG PDF to DWG Converter 2015.4 torrent from software category on Isohunt.AutoDWG DWG to PDF Converter 2015


Read more

Invoices estimates pro 2.0

How do I select a customer?Right-click the design on the left-hand side of the.Manage Your Business Tasks from One Place.To save as a PDF: On the main screen, click the folder on the left-hand side of the screen that the document is located.MyInvoices lets you


Read more

Sitemap